ElectronicRockFolkDiscoAudio FilesClassicRapReggaetonKidsJazzLatinBrassMiscellaneousSoulScreenBlues
» » Pages - Pages
Pages - Pages Album

Performer:

Pages

Title:

Pages

Genre:

Rock / Disco

MP3 album size:

1151 mb

Label:

Capitol Records

Rating:

4.7

Style:

Pop Rock, Soft Rock

Country:

Japan

Date of release:

27 Sep 1989

Catalog:

CP21-6061

Pages - Pages Album

Tracklist

1You Need A Hero3:43
2Midnight Angel4:29
3Only A Dreamer4:36
4Sesatia4:31
5Come On Home3:26
6Fearless4:06
7Tell Me3:50
8Automatic3:57
9O.C.O.E. (Official Cat Of The Eighties)4:57

Versions

CategoryArtistTitle (Format)LabelCategoryCountryYear
ST-12123Pages Pages ‎(LP, Album)Capitol RecordsST-12123US1981
SQ-12504Pages Pages ‎(LP, Album)Capitol Records, StarlineSQ-12504Canada1981
1C 038 15 7645 1Pages Pages ‎(LP, Album, RE)Capitol Records, Fame1C 038 15 7645 1EuropeUnknown
TYCP-80049Pages Pages ‎(CD, Album, Ltd, RE, RM, SHM)Capitol RecordsTYCP-80049Japan2014
ST-12123Pages Pages ‎(LP, Album, Los)Capitol RecordsST-12123US1981

Notes

℗1981 Capitol Records, Inc.
Manufactured by Toshiba EMI, Ltd., Japan

Barcodes

  • Matrix / Runout: CP21-6061 1A2 TO 3
  • Rights Society: JASRAC

Companies

  • Manufactured By – Toshiba EMI Ltd
  • Phonographic Copyright (p) – Capitol Records, Inc.

Album

Discover and explore millions of album and explore millions of album Pages. Maravilhas da natureza. Dulcetes Brasil. O maior e mais antigo Fã-Clube da cantora e atriz mexicana Dulce María no Brasil. قصب Reeds. Please add me to your list of favourite sellers and come again. Thank you for your business. Stamp Album Pages. 0sergiosmarques has 100 positive Feedback. Offers stamp album pages for the US and worldwide. Over 25,000 pages are available covering most of the world. Pages are printable on virtually all computers and printers. This website is devoted to providing affordable U. and foreign stamp album pages that you can print out on your own computer. There are over 200,000 U. and foreign pages available, and a complete set of over 6,500 Classic Era pages, with more pages being added all the time. How do I get started What Pages Are Available . Qfeast is the most popular network that let you create online quizzes, stories, questions, polls or interest pages. Join only takes a second or so Happening Now Trending Quizzes Stories Questions Polls Pages. Pages was an American pop rock band active during the late 1970s and the early 1980s. The band consisted of Richard Page and Steve George on vocals and keyboards supported by various studio musicians, some of whom from time to time were considered part of the band. Although Pages was highly regarded for its well-crafted pop and jazz-fusion sound, the group did not achieve commercial success, and disbanded after recording three studio albums. Pages is perhaps best known as the launching pad for the. AlbumGen: How to create beautiful Custom Pages. Lookup USA yellow pages, find business addresses or phone numbers. Search for a business in the largest Yellow Pages at by business name, category, or phone number, and location. Directory includes maps and directions. The Yellow Pages. Search businesses in The Yellow Pages . Search by business name or type, and location. USA Paginas Amarillas. USA Amarillas Paginas The Spanish yellow pages. Search by name, type or category, and enter a location. You can print your own album pages on notebook sized blank paper by paying a small subscription fee to Stamp Albums com. You can even have these pages printed for you fairly inexpensively by using one of the printers listed under Need Already Printed Pages on this same website. If you have them print the pages for you, they will print on 8. 5 x 11 paper like A4 paper or on Minkus or Scott sized paper used often in the U. The pages will look very nice. If you want to use blank or quadrille pages, since your'e in the Netherlands, it would be very easy to purchase some high quality blank album pages fairly easily. offers 791 album pages products. About 46 of these are Photo Albums. A wide variety of album pages options are available to you, such as cover material, binding

Video

Arakus
foobar2000 1.3.17 / Dynamic Range Meter 1.1.1
log date: 2018-03-02 22:45:21

--------------------------------------------------------------------------------
Analyzed: Pages / Pages [1989 CP21-6061 JP CD]
--------------------------------------------------------------------------------

DR Peak RMS Duration Track
--------------------------------------------------------------------------------
DR14 -0.96 dB -18.05 dB 3:43 01-You Need A Hero
DR13 -0.85 dB -18.00 dB 3:53 02-Tell Me
DR14 -0.91 dB -17.22 dB 5:00 03-O.C.O.E. (Official Cat Of The Eighties)
DR15 0.00 dB -18.07 dB 3:29 04-Come On Home
DR13 -1.33 dB -17.36 dB 4:33 05-Sesatia
DR13 -2.59 dB -18.67 dB 4:38 06-Only A Dreamer
DR14 -0.53 dB -17.35 dB 3:58 07-Automatic
DR14 -1.69 dB -19.18 dB 4:08 08-Fearless
DR13 -2.95 dB -19.34 dB 4:30 09-Midnight Angel
--------------------------------------------------------------------------------

Number of tracks: 9
Official DR value: DR14

Samplerate: 44100 Hz
Channels: 2
Bits per sample: 16
Bitrate: 728 kbps
Codec: ALAC
================================================================================

Related to Pages - Pages